Jump to content

Search the Community

Showing results for tags 'wintv-hvr-5500-hd'.



More search options

  • Search By Tags

    Type tags separated by commas.
  • Search By Author

Content Type


Forums

  • Deutsch
    • Ankündigungen & Neuigkeiten
    • Einsteigerfragen DVBViewer Pro/GE
    • Allgemeines DVBViewer Pro/GE
    • Vorschläge & Ideen
    • Fehlermeldungen DVBViewer Pro/GE
    • Plugins und AddOns
    • DVB Hardware (Digital TV Karten)
    • DVBViewer Recording Service 1.x
    • DVBViewer Media Server
    • Sat>IP Viewer & Co (Android,iOS,Mac)
    • Verschiedenes
    • DVBViewer Video Editor
  • English
    • News & Announcements
    • Newbies DVBViewer Pro/GE
    • General DVBViewer Pro/GE
    • Suggestions & Ideas
    • Bug Reports DVBViewer Pro/GE
    • Plugins and AddOns
    • DVB Hardware (Digital TV cards)
    • DVBViewer Recording Service 1.x
    • DVBViewer Media Server
    • Sat>IP Viewer & Co (Android,iOS,Mac)
    • Off-Topic
    • DVBViewer Video Editor
  • Miscellaneous
    • Scripting Lounge / API (de/en)
    • Area HTPC
    • HDTV / UHDTV (de/en)
    • DVB - The technique behind
    • Conversion & Encoding
    • OEM Edition - User Helping Users (de/en)
    • Forum / Wiki / Website (de/en)
  • Survey ● Umfragen
    • DVBViewer Pro Cleanup (en/de)

Find results in...

Find results that contain...


Date Created

  • Start

    End


Last Updated

  • Start

    End


Filter by number of...

Found 1 result

  1. Hallo Ich habe probleme mit den HD Streams über das web interface flash. Es reisst sporadisch immer der Stream ab . SD sender funktionieren ohne probleme. Habe auch alle default profile getestet tritt aber bei jedem auf. Habe auch schon auf die x64 FFMPEG gewechselt und es ist das selbe problem. Direkter Stream über VLC passt: Villeicht hat jemand eine Lösung. NET: 100/10 OS: WHS 2011 HW: WinTV-HVR-5500-HD AMD Phenom II 3x 2,5 Ghz bei HD streming ca 70% auslastung geht auch nicht auf 100% wenn der fehler auftritt. 8 GB RAM / 1333 beim streamen noch ca 1.5 GB frei HDD WD Blue 500GB 19.01.14 08:51:19.868 FFMPEG frame= 9116 fps= 21 q=27.0 size= 106913kB time=00:07:08.80 bitrate=2042.5kbits/s 19.01.14 08:51:20.391 FFMPEG frame= 9130 fps= 21 q=27.0 size= 107080kB time=00:07:09.36 bitrate=2043.0kbits/s 19.01.14 08:51:20.894 FFMPEG frame= 9143 fps= 21 q=23.0 size= 107153kB time=00:07:09.88 bitrate=2042.0kbits/s 19.01.14 08:51:21.421 FFMPEG frame= 9157 fps= 21 q=18.0 size= 107307kB time=00:07:10.44 bitrate=2042.2kbits/s 19.01.14 08:51:21.575 FFMPEG [mpegts @ 026cf980] PES packet size mismatch 19.01.14 08:51:21.612 FFMPEG [h264 @ 0501f860] Reference 2 >= 2 [h264 @ 0501f860] error while decoding MB 70 35, bytestream (5730) 19.01.14 08:51:21.667 FFMPEG [ac3 @ 026c9d40] exponent out-of-range [ac3 @ 026c9d40] error decoding the audio block 19.01.14 08:51:21.671 FFMPEG [ac3 @ 026c9d40] frame sync error Error while decoding stream #0:1: Invalid data found when processing input 19.01.14 08:51:21.687 FFMPEG [h264 @ 03b96ea0] reference picture missing during reorder [h264 @ 03b96ea0] Missing reference picture, default is 2147483647 19.01.14 08:51:21.707 FFMPEG [h264 @ 0501f860] mmco: unref short failure Last message repeated 1 times [h264 @ 0501f860] number of reference frames (0+4) exceeds max (3; probably corrupt input), discarding one [h264 @ 0501f860] reference picture missing during reorder 19.01.14 08:51:21.708 FFMPEG [h264 @ 0501f860] Missing reference picture, default is 83312 19.01.14 08:51:22.564 FFMPEG frame= 9163 fps= 21 q=20.0 size= 107578kB time=00:07:18.93 bitrate=2007.8kbits/s 19.01.14 08:51:23.066 FFMPEG frame= 9163 fps= 21 q=20.0 size= 107578kB time=00:07:19.74 bitrate=2004.1kbits/s Mfg Bonzey
×
×
  • Create New...